<?xml version="1.0" standalone="no"?>
<!DOCTYPE svg PUBLIC "-//W3C//DTD SVG 1.1//EN" "http://www.w3.org/Graphics/SVG/1.1/DTD/svg11.dtd" >
<svg xmlns="http://www.w3.org/2000/svg" xmlns:xlink="http://www.w3.org/1999/xlink" version="1.1">
<metadata>
Created by FontForge 20170731 at Sat Jul 21 23:30:42 2012
 By Aleksey,,,
Copyright (c) 2010 by Svetoslav Simov. All rights reserved.
</metadata>
<defs>
<font id="NexaLight" horiz-adv-x="608" >
  <font-face 
    font-family="Nexa Light"
    font-weight="400"
    font-stretch="normal"
    units-per-em="1000"
    panose-1="2 0 0 0 0 0 0 0 0 0"
    ascent="750"
    descent="-250"
    x-height="494"
    cap-height="700"
    bbox="-108 -322 1031 918"
    underline-thickness="50"
    underline-position="-200"
    unicode-range="U+0020-FB02"
  />
<missing-glyph horiz-adv-x="238" 
 />
    <glyph glyph-name=".notdef" horiz-adv-x="238" 
 />
    <glyph glyph-name=".null" horiz-adv-x="0" 
 />
    <glyph glyph-name="nonmarkingreturn" horiz-adv-x="333" 
 />
    <glyph glyph-name="space" unicode=" " horiz-adv-x="275" 
 />
    <glyph glyph-name="exclam" unicode="!" horiz-adv-x="195" 
d="M60 700h51v-559h-51v559zM48 35q0 18 12.5 28.5t27 10.5t27 -10.5t12.5 -28.5t-12.5 -28.5t-27 -10.5t-27 10.5t-12.5 28.5z" />
    <glyph glyph-name="quotedbl" unicode="&#x22;" horiz-adv-x="319" 
d="M54 704h45v-256h-45v256zM194 704h44v-256h-44v256z" />
    <glyph glyph-name="numbersign" unicode="#" horiz-adv-x="615" 
d="M241 700h46l-41 -168h201l42 168h46l-42 -168h91v-38h-100l-72 -283h95v-40h-104l-42 -171h-46l42 171h-201l-42 -171h-46l42 171h-81v40h89l73 283h-85v38h94zM438 494h-201l-73 -283h202z" />
    <glyph glyph-name="dollar" unicode="$" horiz-adv-x="633" 
d="M284 805h45v-100q75 -4 138 -34t95 -87l-47 -26q-26 49 -85 72.5t-124 24.5q-34 0 -69 -7.5t-68.5 -22t-54.5 -43t-20 -64.5q1 -26 12.5 -45.5t28.5 -32.5t48 -23.5t57 -16.5t68 -14q131 -25 179 -49q96 -47 96 -152q0 -62 -41.5 -105.5t-96 -61.5t-117.5 -21v-97h-44v97
q-85 3 -157.5 37t-106.5 100l48 24q29 -56 96.5 -82.5t141.5 -26.5q36 0 72 7t71.5 21.5t57.5 42.5t22 66q0 25 -8 45.5t-26.5 35.5t-36 25t-49.5 19t-52 13.5t-58 11.5q-37 7 -55 11t-51 12.5t-49.5 16.5t-39.5 22t-34 29.5t-20 38.5t-10 50q-1 47 20.5 83.5t58.5 58
t78.5 33.5t86.5 14v100z" />
    <glyph glyph-name="percent" unicode="%" horiz-adv-x="722" 
d="M593 703l-55 -1l-446 -702h56zM173 705q49 0 84.5 -22t52 -54.5t16.5 -71t-16.5 -71t-52 -54.5t-84.5 -22q-42 0 -74.5 16.5t-49.5 42.5t-25 57t0 62.5t25 57.5t49.5 42.5t74.5 16.5zM514 289q42 0 75 -16.5t50 -42.5t25 -57t0 -62.5t-25 -57.5t-50 -42.5t-75 -16.5
q-48 0 -84 22t-52 54.5t-16 71t16 71t52 54.5t84 22zM514 248q-40 0 -68 -22t-34 -53t0.5 -62t34.5 -53t68 -22t68 22t34 53t-0.5 62t-34.5 53t-68 22zM173 662q-41 0 -68.5 -21.5t-34 -52t0 -61t34.5 -52t69 -21.5q40 0 67 21.5t33.5 52t0 61t-34 52t-67.5 21.5z" />
    <glyph glyph-name="ampersand" unicode="&#x26;" horiz-adv-x="720" 
d="M562 531h-47q0 32 -10 55.5t-26 37.5t-40 22t-48 11t-55 3q-97 0 -147.5 -39.5t-49.5 -101.5q0 -38 19 -66.5t49.5 -44t63.5 -22.5t67 -7h297v-43h-64v-153q0 -65 19.5 -103.5t67.5 -37.5v-42q-42 -6 -74 19t-43 70q-60 -98 -206 -98q-126 0 -192.5 52t-66.5 143
q0 61 41.5 106.5t99.5 64.5q-56 17 -92.5 60.5t-36.5 100.5q0 83 66 134.5t183 51.5q225 0 225 -173zM527 183v153h-192q-97 0 -152.5 -45.5t-55.5 -104.5q0 -70 52 -109t155 -39q33 0 64 6.5t61.5 21.5t49 45t18.5 72z" />
    <glyph glyph-name="quotesingle" unicode="'" horiz-adv-x="209" 
d="M73 704h44v-256h-44v256z" />
    <glyph glyph-name="parenleft" unicode="(" horiz-adv-x="385" 
d="M308 766l26 -38q-92 -64 -142.5 -173.5t-52 -224t48.5 -227t146 -182.5l-26 -39q-106 69 -163.5 191.5t-57.5 250.5t57.5 250.5t163.5 191.5z" />
    <glyph glyph-name="parenright" unicode=")" horiz-adv-x="349" 
d="M18 728l26 38q106 -69 163.5 -191.5t57.5 -250.5t-57.5 -250.5t-163.5 -191.5l-26 39q96 70 146 182.5t48.5 227t-52 224t-142.5 173.5z" />
    <glyph glyph-name="asterisk" unicode="*" horiz-adv-x="294" 
d="M188 493l-51 73l-53 -73l-33 23l57 71l-79 23l11 36l79 -26l-2 81h41l-2 -81l85 25l11 -36l-86 -22l55 -70z" />
    <glyph glyph-name="plus" unicode="+" horiz-adv-x="503" 
d="M49 366h175v172h47v-172h175v-48h-175v-177h-47v177h-175v48z" />
    <glyph glyph-name="comma" unicode="," horiz-adv-x="198" 
d="M45 30q0 18 12.5 28.5t27 10.5t27 -10.5t12.5 -28.5q0 -8 -3 -17l-40 -102h-43l31 83q-24 9 -24 36z" />
    <glyph glyph-name="hyphen" unicode="-" horiz-adv-x="478" 
d="M58 289v52h350v-52h-350z" />
    <glyph glyph-name="period" unicode="." horiz-adv-x="191" 
d="M36 30q0 18 12.5 28.5t27 10.5t27 -10.5t12.5 -28.5t-12.5 -28.5t-27 -10.5t-27 10.5t-12.5 28.5z" />
    <glyph glyph-name="slash" unicode="/" horiz-adv-x="436" 
d="M41 -82h-53l373 841h54z" />
    <glyph glyph-name="zero" unicode="0" horiz-adv-x="635" 
d="M88 434v-167q0 -54 18.5 -98t48.5 -71t69 -41.5t79 -14.5t79 14.5t69 41.5t48.5 71t18.5 98v167q0 54 -18.5 97.5t-48.5 70.5t-69 41.5t-79 14.5t-79 -14.5t-69 -41t-48.5 -70.5t-18.5 -98zM35 267v167q0 88 39.5 152t99.5 93t129 29t129 -29t99.5 -93.5t39.5 -151.5
v-167q0 -66 -23 -119.5t-60.5 -86.5t-86 -51t-98.5 -18t-98.5 17.5t-86 50.5t-60.5 87t-23 120z" />
    <glyph glyph-name="one" unicode="1" horiz-adv-x="328" 
d="M4 0v47h118v605h-118v48h172v-653h118v-47h-290z" />
    <glyph glyph-name="two" unicode="2" horiz-adv-x="661" 
d="M99 514h-53q0 53 23.5 92.5t63.5 61t85 31.5t96 10q70 0 128 -18.5t100 -66.5t42 -119q0 -68 -42.5 -115t-101 -66.5t-124.5 -19.5q-221 -2 -221 -145v-107h482v-52h-535v158q0 56 23.5 95.5t64.5 60.5t86 30t98 9q37 0 73 7.5t70.5 24t55.5 47.5t21 73q0 44 -20.5 76
t-54 49t-70 24.5t-75.5 7.5q-38 0 -73.5 -7t-68.5 -23t-53 -46.5t-20 -71.5z" />
    <glyph glyph-name="three" unicode="3" horiz-adv-x="640" 
d="M94 529h-51q0 52 24 89t64 56t82.5 27t90.5 8q121 0 189 -52t69 -133q0 -59 -43 -105.5t-105 -57.5q66 -12 113.5 -61t47.5 -111q0 -86 -71 -142t-198 -56q-50 0 -94.5 8.5t-87 27.5t-67.5 58t-25 93h52q0 -36 15.5 -62.5t37 -40.5t54 -22t58.5 -10t58 -2q105 0 161 41.5
t56 104.5q0 60 -58 105t-160 45h-116v45h113q98 0 153.5 43.5t56.5 98.5q1 58 -54 99t-154 41q-211 0 -211 -135z" />
    <glyph glyph-name="four" unicode="4" horiz-adv-x="639" 
d="M418 700h89v-488h88v-54h-88v-158h-54v158h-429l-11 65zM453 212v448l-382 -448h382z" />
    <glyph glyph-name="five" unicode="5" horiz-adv-x="637" 
d="M329 380h-275v320h487v-48h-437v-224h225q68 0 118.5 -18t78.5 -49t41 -68t13 -80q0 -93 -70 -155.5t-202 -62.5q-52 0 -96.5 9.5t-85.5 30.5t-65 61.5t-24 96.5h54q0 -144 217 -144q108 0 163 45t55 118t-45 120.5t-152 47.5z" />
    <glyph glyph-name="six" unicode="6" horiz-adv-x="660" 
d="M102 516v-191q69 99 224 99q52 0 99 -12.5t87 -37t63.5 -67.5t23.5 -99q0 -57 -24 -100.5t-64 -67.5t-87 -36t-99 -12q-71 0 -131 20.5t-102.5 71.5t-42.5 126v306q0 93 78.5 143.5t187.5 50.5q110 0 185.5 -46t81.5 -131h-54q-4 61 -63.5 95t-149.5 34
q-86 0 -149.5 -38.5t-63.5 -107.5zM325 43q41 0 77.5 8t70 26t53.5 51.5t20 79.5q0 80 -67.5 123.5t-152.5 43.5t-153.5 -43t-69.5 -123q0 -45 20 -78.5t53.5 -52t71 -27t77.5 -8.5z" />
    <glyph glyph-name="seven" unicode="7" horiz-adv-x="591" 
d="M107 0l378 650h-454v50h510l7 -44l-380 -656h-61z" />
    <glyph glyph-name="eight" unicode="8" horiz-adv-x="680" 
d="M323 340q-34 0 -71.5 -8t-76 -24.5t-63 -49t-24.5 -74.5q0 -54 43.5 -89.5t93 -47t98.5 -11.5q35 0 72 7t75 23t63 46.5t25 71.5t-25 73t-63 49t-75.5 25.5t-71.5 8.5zM323 -15q-52 0 -100 10.5t-92 32t-70.5 62t-26.5 94.5q0 68 46 115.5t112 61.5q-146 45 -146 162
q0 52 25.5 91t68 60t88.5 31t95 10t94.5 -9.5t88 -30t68.5 -60t26 -92.5q0 -62 -42 -102.5t-110 -61.5q66 -14 114.5 -61.5t48.5 -113.5q0 -54 -26.5 -94.5t-70 -62t-91.5 -32t-100 -10.5zM323 669q-36 0 -71.5 -7t-71.5 -22.5t-58.5 -45.5t-22.5 -71q0 -38 22.5 -66
t58.5 -43t72 -21.5t71 -6.5t71 6.5t72 21.5t58.5 43t22.5 66q0 40 -22.5 70t-58 45.5t-72 23t-71.5 7.5z" />
    <glyph glyph-name="nine" unicode="9" horiz-adv-x="672" 
d="M538 186v191q-69 -99 -225 -99q-52 0 -99 12.5t-87 37t-63.5 67.5t-23.5 99q0 57 24 100.5t64 67.5t87 36t99 12q71 0 131 -20.5t102.5 -71.5t42.5 -126v-306q0 -93 -78.5 -143.5t-187.5 -50.5q-110 0 -185.5 46t-81.5 131h54q4 -61 63.5 -95t149.5 -34q86 0 150 38.5
t64 107.5zM314 659q-41 0 -77.5 -8t-70 -26t-53.5 -51.5t-20 -79.5q0 -44 20 -78t53 -52.5t70 -27.5t77 -9q85 0 153.5 43t69.5 123q0 45 -20 78.5t-53.5 52t-71 27t-77.5 8.5z" />
    <glyph glyph-name="colon" unicode=":" horiz-adv-x="210" 
d="M52 30q0 18 12.5 28.5t27 10.5t27 -10.5t12.5 -28.5t-12.5 -28.5t-27 -10.5t-27 10.5t-12.5 28.5zM52 330q0 18 12.5 28.5t27 10.5t27 -10.5t12.5 -28.5t-12.5 -28.5t-27 -10.5t-27 10.5t-12.5 28.5z" />
    <glyph glyph-name="semicolon" unicode=";" horiz-adv-x="210" 
d="M52 330q0 18 12.5 28.5t27 10.5t27 -10.5t12.5 -28.5t-12.5 -28.5t-27 -10.5t-27 10.5t-12.5 28.5zM52 30q0 18 12.5 28.5t27 10.5t27 -10.5t12.5 -28.5q0 -8 -3 -17l-40 -102h-43l31 83q-24 9 -24 36z" />
    <glyph glyph-name="less" unicode="&#x3c;" horiz-adv-x="355" 
d="M33 337l211 186l30 -34l-192 -171l196 -172l-34 -34l-211 186v39z" />
    <glyph glyph-name="equal" unicode="=" horiz-adv-x="492" 
d="M53 207v49h367v-49h-367zM53 382v50h367v-50h-367z" />
    <glyph glyph-name="greater" unicode="&#x3e;" horiz-adv-x="359" 
d="M78 523l211 -186v-39l-211 -186l-34 34l196 172l-192 171z" />
    <glyph glyph-name="question" unicode="?" horiz-adv-x="647" 
d="M85 508h-52q0 44 16 79.5t42 58t61.5 38t72.5 22t76 6.5q41 0 77.5 -6t72.5 -20.5t62 -37t42 -59t16 -82.5q0 -48 -12.5 -83t-37 -55.5t-45 -30.5t-50.5 -19q-79 -24 -99.5 -54t-20.5 -124h-51q0 103 33 150t125 74q52 15 79.5 44.5t27.5 97.5q0 47 -20 79.5t-54.5 48.5
t-69 22.5t-75.5 6.5q-38 0 -73 -7t-68.5 -23.5t-54 -49t-20.5 -76.5zM246 36q0 25 19.5 35t39 0t19.5 -35t-19.5 -35t-39 0t-19.5 35z" />
    <glyph glyph-name="at" unicode="@" horiz-adv-x="926" 
d="M444 695q177 0 282.5 -103t105.5 -282q0 -105 -40 -185q-21 -42 -58 -54.5t-65.5 10.5t-28.5 71v-1q-35 -48 -88.5 -75t-113.5 -27q-104 0 -177.5 73.5t-73.5 177.5q0 112 72 181.5t179 69.5q62 0 117 -28.5t85 -81.5v85h44v-373q0 -25 12 -34.5t28.5 -1.5t27.5 28
q33 59 33 165q0 163 -91 251t-250 88q-154 0 -247 -96t-93 -246t92.5 -242t247.5 -92q71 0 153 41l26 -38q-79 -49 -179 -49q-179 0 -285 106.5t-106 273.5q0 165 106.5 276.5t284.5 111.5zM438 504q-86 0 -144 -56t-58 -148q0 -84 59 -143.5t143 -59.5q65 0 112.5 30
t69 75.5t21.5 98t-21.5 98t-69 75.5t-112.5 30z" />
    <glyph glyph-name="A" unicode="A" horiz-adv-x="694" 
d="M679 0h-58l-77 172h-418l-76 -172h-58l314 700h59zM147 222h376l-188 426z" />
    <glyph glyph-name="B" unicode="B" horiz-adv-x="671" 
d="M119 332v-280h233q201 0 201 132q-1 76 -57.5 112t-136.5 36h-240zM119 654v-271h240q47 0 83 10t62.5 39.5t26.5 76.5q0 71 -53 108t-126 37h-233zM352 700q97 0 163.5 -48.5t66.5 -142.5q0 -54 -30.5 -93.5t-83.5 -56.5q65 -18 101.5 -66t36.5 -110q0 -52 -22 -89
t-60.5 -57t-80.5 -28.5t-91 -8.5h-287v700h287z" />
    <glyph glyph-name="C" unicode="C" horiz-adv-x="673" 
d="M606 131l36 -34q-105 -105 -255 -105q-169 0 -264 102t-96 252q-1 96 38 177t123 133t199 52q150 0 255 -105l-37 -32q-89 89 -218 89q-147 0 -228 -89.5t-80 -222.5q2 -130 82.5 -218t225.5 -88q128 0 219 89z" />
    <glyph glyph-name="D" unicode="D" horiz-adv-x="709" 
d="M296 700q86 0 154.5 -29t111 -78t65 -109t24.5 -126q2 -68 -19.5 -131t-64 -114.5t-112.5 -82t-159 -30.5h-237v700h237zM296 649h-183v-597h183q146 0 224.5 91.5t76.5 214.5q-2 120 -80.5 205.5t-220.5 85.5z" />
    <glyph glyph-name="E" unicode="E" horiz-adv-x="614" 
d="M117 649v-272h410v-49h-410v-276h442v-52h-495v700h483v-51h-430z" />
    <glyph glyph-name="F" unicode="F" horiz-adv-x="590" 
d="M118 646v-279h403v-51h-403v-317h-54v701h471v-54h-417z" />
    <glyph glyph-name="G" unicode="G" horiz-adv-x="736" 
d="M646 605l-31 -34q-45 44 -104.5 67t-120.5 23q-146 0 -228 -91t-81 -221q0 -131 81 -219t228 -88q125 0 213 81v196h-244v47h295v-262q-113 -113 -264 -113q-115 0 -198.5 50t-123 129.5t-39.5 177.5q-1 163 99.5 262.5t261.5 99.5q150 0 256 -105z" />
    <glyph glyph-name="H" unicode="H" horiz-adv-x="709" 
d="M619 0h-54v318h-446v-318h-54v700h54v-333h446v333h54v-700z" />
    <glyph glyph-name="I" unicode="I" horiz-adv-x="208" 
d="M118 0h-53v700h53v-700z" />
    <glyph glyph-name="J" unicode="J" horiz-adv-x="679" 
d="M536 264v389h-268v47h321v-436q0 -127 -77.5 -201t-199.5 -74q-120 0 -198 77t-78 198h50q0 -99 64 -162t162 -63q100 0 162 59.5t62 165.5z" />
    <glyph glyph-name="K" unicode="K" horiz-adv-x="563" 
d="M556 4v-4h-68l-369 345v-344h-54v699h54v-319l340 319h65v-5l-352 -330z" />
    <glyph glyph-name="L" unicode="L" horiz-adv-x="550" 
d="M64 700h54v-649h394v-51h-448v700z" />
    <glyph glyph-name="M" unicode="M" horiz-adv-x="818" 
d="M675 0v622l-268 -410h-18l-270 410v-622h-54v700h64l268 -408l265 408h66v-700h-53z" />
    <glyph glyph-name="N" unicode="N" horiz-adv-x="704" 
d="M65 700h23l471 -579v579h53v-700h-21l-472 578v-578h-54v700z" />
    <glyph glyph-name="O" unicode="O" horiz-adv-x="804" 
d="M387 711q168 0 261 -105.5t92 -256.5q0 -70 -23 -134t-65.5 -115t-111 -81.5t-153.5 -30.5t-153.5 30.5t-111.5 82t-65.5 115.5t-22.5 135q0 97 38 177t120 131.5t195 51.5zM387 661q-144 0 -222.5 -89.5t-77.5 -221.5q1 -128 80 -220t220 -92q96 0 166 46t102.5 115
t32.5 151q0 130 -79 220.5t-222 90.5z" />
    <glyph glyph-name="P" unicode="P" horiz-adv-x="654" 
d="M371 650h-253v-359h253q48 0 85.5 20t57 51.5t28.5 69.5t0 76.5t-28.5 70t-57 51.5t-85.5 20zM371 242h-253v-242h-54v700h307q55 0 99.5 -19.5t72 -52t42 -73.5t14.5 -84t-14.5 -84t-42 -73.5t-72 -52t-99.5 -19.5z" />
    <glyph glyph-name="Q" unicode="Q" horiz-adv-x="781" 
d="M387 709q169 0 261.5 -103.5t91.5 -255.5q0 -139 -82 -239l89 -86l-34 -35l-88 84q-92 -81 -238 -81q-170 0 -263 104.5t-91 258.5q2 149 94.5 251t259.5 102zM387 658q-132 0 -216.5 -86t-84.5 -216q-2 -132 77 -222t224 -90q143 0 221.5 88.5t78.5 217.5
q0 131 -78.5 219.5t-221.5 88.5z" />
    <glyph glyph-name="R" unicode="R" horiz-adv-x="649" 
d="M376 268l247 -268h-71l-242 265h-191v-265h-54v700h308q108 0 168.5 -64.5t61.5 -153.5q1 -91 -58.5 -152.5t-168.5 -61.5zM119 650v-334h248q88 0 132 45t45 122q1 67 -44 117t-127 50h-254z" />
    <glyph glyph-name="S" unicode="S" horiz-adv-x="633" 
d="M562 591l-44 -26q-35 56 -87.5 75t-124.5 20q-48 0 -92.5 -11t-82 -45t-37.5 -86q0 -26 12 -46t28.5 -32.5t48 -23.5t57 -16.5t68.5 -13.5q131 -25 179 -49q96 -47 96 -152q0 -56 -26.5 -96.5t-69.5 -61t-87.5 -29.5t-93.5 -9q-89 0 -169 38.5t-118 113.5l48 24
q30 -60 99.5 -93.5t139.5 -33.5q37 0 72 6t71 21t58 46t22 75q0 25 -8 45.5t-26.5 35.5t-36 25t-49.5 19t-52 13.5t-58 11.5q-42 8 -64.5 13t-58.5 15.5t-55.5 22.5t-40.5 30t-30.5 43t-9.5 56q-1 53 23.5 92.5t66 60.5t85.5 31t91 10q87 0 147.5 -24t108.5 -95z" />
    <glyph glyph-name="T" unicode="T" 
d="M263 0v651h-253v48h560v-48h-253v-651h-54z" />
    <glyph glyph-name="U" unicode="U" horiz-adv-x="683" 
d="M547 700h53v-435q0 -66 -23 -119.5t-60.5 -86.5t-86 -51t-98.5 -18t-98.5 17.5t-86 50.5t-60.5 87t-23 120v435h53v-435q0 -54 18.5 -98t48.5 -71t69 -42t79 -15t79 15t69 42t48.5 71t18.5 98v435z" />
    <glyph glyph-name="V" unicode="V" horiz-adv-x="674" 
d="M587 700h58l-288 -702h-58l-288 702h58l259 -640z" />
    <glyph glyph-name="W" unicode="W" horiz-adv-x="1045" 
d="M281 60l215 640h30l214 -640l217 640h58l-247 -702h-58l-111 328l-88 277l-88 -275l-112 -330h-58l-245 702h57z" />
    <glyph glyph-name="X" unicode="X" horiz-adv-x="646" 
d="M320 400l213 299h58v-1l-238 -339l257 -358v-1h-64l-226 320l-226 -320h-64v1l257 358l-238 339v1h59z" />
    <glyph glyph-name="Y" unicode="Y" horiz-adv-x="639" 
d="M277 0v280l-273 419v1h63l237 -368l238 368h63v-1l-274 -419v-280h-54z" />
    <glyph glyph-name="Z" unicode="Z" horiz-adv-x="578" 
d="M37 650v50h507v-19l-451 -628h451v-53h-531v23l445 627h-421z" />
    <glyph glyph-name="bracketleft" unicode="[" horiz-adv-x="277" 
d="M78 -120v882h181v-48h-129v-786h129v-48h-181z" />
    <glyph glyph-name="backslash" unicode="\" horiz-adv-x="436" 
d="M422 -82h-52l-374 841h53z" />
    <glyph glyph-name="bracketright" unicode="]" horiz-adv-x="304" 
d="M198 762v-882h-181v48h129v786h-129v48h181z" />
    <glyph glyph-name="asciicircum" unicode="^" horiz-adv-x="516" 
d="M482 384l-2 -3h-52l-181 277l-181 -277h-52l-2 3l210 316h50z" />
    <glyph glyph-name="underscore" unicode="_" horiz-adv-x="514" 
d="M13 -72v46h468v-46h-468z" />
    <glyph glyph-name="grave" unicode="`" horiz-adv-x="234" 
d="M169 577h-48l-92 123v1h65l75 -120v-4z" />
    <glyph glyph-name="a" unicode="a" 
d="M481 494h49v-494h-49v105q-70 -113 -202 -113q-105 0 -178 72t-73 183t72.5 182t178.5 71q63 0 117.5 -29t84.5 -85v108zM279 453q-86 0 -144 -57.5t-58 -148.5t58 -149t144 -58q57 0 101 23t67 59t34 80t0 88.5t-34 80.5t-67 59t-101 23z" />
    <glyph glyph-name="b" unicode="b" horiz-adv-x="621" 
d="M306 455q-87 0 -144.5 -58t-57.5 -149q0 -92 57 -150t145 -58q87 0 144.5 54t57.5 153q0 100 -57 154t-145 54zM55 700h48v-314q29 58 83.5 87t121.5 29q107 0 177.5 -68t70.5 -187t-70 -187t-177 -68q-64 0 -120 31t-86 86v-109h-48v700z" />
    <glyph glyph-name="c" unicode="c" horiz-adv-x="505" 
d="M427 102l33 -33q-74 -74 -180 -74q-108 0 -181 69t-73 183q0 115 72 183.5t182 68.5q104 0 180 -74l-32 -31q-59 59 -148 59q-88 0 -147 -55t-59 -151t59 -151t147 -55q86 0 147 61z" />
    <glyph glyph-name="d" unicode="d" horiz-adv-x="615" 
d="M278 455q-88 0 -145 -54t-57 -154q0 -99 57.5 -153t144.5 -54q88 0 145 58t57 150q0 91 -57.5 149t-144.5 58zM481 700h48v-700h-48v109q-30 -55 -86 -86t-120 -31q-107 0 -177 68t-70 187t70.5 187t177.5 68q67 0 121.5 -29t83.5 -87v314z" />
    <glyph glyph-name="e" unicode="e" horiz-adv-x="594" 
d="M278 -7q-107 0 -179 69.5t-72 184.5q0 110 73 182.5t178 72.5q114 0 185.5 -71t58.5 -207h-445q7 -84 64.5 -133.5t136.5 -49.5q51 0 101 20t77 55l35 -28q-35 -46 -93 -70.5t-120 -24.5zM77 267h401q-1 90 -55 140t-145 50q-79 0 -136 -51t-65 -139z" />
    <glyph glyph-name="f" unicode="f" horiz-adv-x="377" 
d="M154 0h-48v447h-101v43h101v44q0 169 148 169q53 0 98 -34l-24 -36q-42 25 -76 25q-98 0 -98 -124v-44h163v-43h-163v-447z" />
    <glyph glyph-name="g" unicode="g" horiz-adv-x="543" 
d="M404 458l48 56l32 -28l-48 -56q61 -66 61 -168q0 -66 -36.5 -124.5t-96.5 -85.5q135 -48 135 -177q0 -96 -66 -146.5t-169 -50.5q-101 0 -167.5 53t-66.5 144h49q0 -72 53 -110.5t132 -38.5q81 0 134 37.5t53 111.5t-55 111t-132 37q-105 0 -168.5 68.5t-63.5 170.5
q0 112 66 176.5t166 64.5q77 0 140 -45zM264 454q-80 0 -131.5 -49.5t-51.5 -142.5q0 -79 50.5 -134.5t132.5 -55.5q76 0 130.5 56.5t54.5 133.5q0 90 -52.5 141t-132.5 51z" />
    <glyph glyph-name="h" unicode="h" horiz-adv-x="560" 
d="M55 700h47v-298q55 97 178 99q101 0 154 -59t53 -159v-283h-48v283q0 80 -39.5 125.5t-119.5 45.5q-77 0 -126.5 -52.5t-49.5 -130.5v-271h-49v700z" />
    <glyph glyph-name="i" unicode="i" horiz-adv-x="189" 
d="M104 496h-49v-496h49v496zM41 655q0 18 12.5 28.5t27 10.5t27 -10.5t12.5 -28.5t-12.5 -28.5t-27 -10.5t-27 10.5t-12.5 28.5z" />
    <glyph glyph-name="j" unicode="j" horiz-adv-x="191" 
d="M113 495h-48v-543q0 -60 -16 -91.5t-68 -31.5q-40 0 -75 20l-14 -42q45 -24 89 -24q76 0 104.5 44t27.5 125v543zM49 660q0 18 12.5 28.5t27 10.5t27 -10.5t12.5 -28.5t-12.5 -28.5t-27 -10.5t-27 10.5t-12.5 28.5z" />
    <glyph glyph-name="k" unicode="k" horiz-adv-x="438" 
d="M55 700h48v-422l233 216h65v-2l-250 -231l279 -258v-3h-62l-265 242v-242h-48v700z" />
    <glyph glyph-name="l" unicode="l" horiz-adv-x="186" 
d="M55 700h49v-700h-49v700z" />
    <glyph glyph-name="m" unicode="m" horiz-adv-x="919" 
d="M836 0h-49v296q0 71 -44 116.5t-114 45.5t-114.5 -46.5t-44.5 -118.5v-293h-49v293q0 72 -44.5 118t-114.5 46t-114 -46t-44 -118v-293h-49v494h46l1 -82q48 92 161 92q62 0 112.5 -30t70.5 -92q22 58 72.5 90t110.5 32q91 0 149 -58t58 -150v-296z" />
    <glyph glyph-name="n" unicode="n" horiz-adv-x="575" 
d="M55 494h48v-88q53 95 176 97q100 0 161.5 -58.5t61.5 -159.5v-285h-49v284q0 83 -47 127.5t-129 43.5q-76 -1 -124.5 -52t-48.5 -128v-275h-49v494z" />
    <glyph glyph-name="o" unicode="o" horiz-adv-x="592" 
d="M283 -7q-107 0 -179 69t-72 184t72 186t179 71t179 -71t72 -186t-72 -184t-179 -69zM283 41q87 0 145 56t58 149q0 94 -58.5 152.5t-144.5 58.5t-144.5 -58.5t-58.5 -152.5q0 -93 58 -149t145 -56z" />
    <glyph glyph-name="p" unicode="p" horiz-adv-x="622" 
d="M306 38q88 0 145 54.5t57 154.5t-57 153.5t-145 53.5q-86 0 -143 -58.5t-57 -149.5q0 -90 57.5 -149t142.5 -59zM102 -206h-47v700h48v-117q30 57 86.5 90.5t127.5 33.5q105 -4 172.5 -71.5t67.5 -182.5q0 -120 -71 -188t-180 -68q-65 0 -119 31.5t-85 91.5v-320z" />
    <glyph glyph-name="q" unicode="q" horiz-adv-x="615" 
d="M280 38q85 0 142.5 59t57.5 149q0 91 -57 149.5t-143 58.5q-88 0 -145 -53.5t-57 -153.5t57 -154.5t145 -54.5zM531 -206h-47v320q-31 -60 -85 -91.5t-119 -31.5q-109 0 -180 68t-71 188q0 115 67.5 182.5t172.5 71.5q71 0 127.5 -33.5t86.5 -90.5v117h48v-700z" />
    <glyph glyph-name="r" unicode="r" horiz-adv-x="392" 
d="M55 494h46l2 -88q22 47 67 70t97 23q56 2 106 -29l-22 -40q-37 23 -84 23q-69 -1 -116 -49t-47 -116v-288h-49v494z" />
    <glyph glyph-name="s" unicode="s" horiz-adv-x="499" 
d="M424 436l-30 -32q-59 52 -154 52q-63 1 -106.5 -22.5t-42.5 -68.5q0 -16 6.5 -28.5t20.5 -22t24.5 -15t33.5 -11t31.5 -7.5t33.5 -6q102 -17 138 -36q69 -34 66 -109q-1 -51 -35 -83.5t-76.5 -43.5t-91.5 -11q-68 0 -126.5 25.5t-89.5 73.5l36 32q29 -42 78.5 -63
t102.5 -21q36 0 67 6.5t58.5 29t28.5 58.5q1 21 -9 36.5t-22.5 25t-38 17t-42.5 11t-49 8.5q-37 6 -58 10.5t-50 14.5t-44.5 23t-27.5 34.5t-12 50.5q-1 68 56.5 103.5t139.5 34.5q114 0 184 -66z" />
    <glyph glyph-name="t" unicode="t" horiz-adv-x="394" 
d="M120 638l48 5v-149h168v-41h-168v-301q0 -57 18.5 -85.5t72.5 -28.5q34 0 76 20l17 -40q-52 -25 -93 -25q-75 0 -107 41t-32 118v301h-105v41h105v144z" />
    <glyph glyph-name="u" unicode="u" horiz-adv-x="575" 
d="M501 0h-48v89q-53 -95 -176 -97q-100 0 -161.5 58.5t-61.5 159.5v285h49v-284q0 -83 47 -127.5t129 -43.5q76 1 124.5 52t48.5 128v275h49v-495z" />
    <glyph glyph-name="v" unicode="v" horiz-adv-x="502" 
d="M215 0l-207 494h54l180 -437l180 437h54l-207 -494h-54z" />
    <glyph glyph-name="w" unicode="w" horiz-adv-x="765" 
d="M740 494l-175 -494h-54l-80 216l-60 192l-62 -193l-80 -215h-54l-176 494h54l149 -437l151 437h35l150 -437l148 437h54z" />
    <glyph glyph-name="x" unicode="x" horiz-adv-x="486" 
d="M82 494l147 -202l147 202h59v-2l-177 -236l191 -254v-2h-58l-162 221l-162 -221h-58v2l191 254l-177 236v2h59z" />
    <glyph glyph-name="y" unicode="y" horiz-adv-x="517" 
d="M424 494h53l-301 -700h-52l91 212l-198 488h53l115 -292l58 -143l57 144z" />
    <glyph glyph-name="z" unicode="z" horiz-adv-x="459" 
d="M40 450v44h372v-19l-312 -429h312v-46h-388v17l315 433h-299z" />
    <glyph glyph-name="braceleft" unicode="{" horiz-adv-x="319" 
d="M263 -71v-38q-90 -13 -121 17.5t-31 118.5v147q0 118 -79 118v39q79 0 79 118v135q0 87 33.5 120t118.5 17v-34q-64 10 -86 -12t-22 -91v-135q0 -20 -1 -33.5t-5 -32.5t-11 -31t-21 -23.5t-34 -16.5q24 -6 40 -20.5t22 -36t8 -39t2 -42.5v-147q0 -68 22 -88.5t86 -9.5z
" />
    <glyph glyph-name="bar" unicode="|" horiz-adv-x="252" 
d="M141 705v-823h-53v823h53z" />
    <glyph glyph-name="braceright" unicode="}" horiz-adv-x="298" 
d="M18 -109v38q64 -11 86 9.5t22 88.5v147q0 25 2 42.5t8 39t22 36t40 20.5q-20 5 -34 16.5t-21 23.5t-11 31t-5 32.5t-1 33.5v135q0 69 -22 91t-86 12v34q85 16 118.5 -17t33.5 -120v-135q0 -118 79 -118v-39q-79 0 -79 -118v-147q0 -88 -31 -118.5t-121 -17.5z" />
    <glyph glyph-name="asciitilde" unicode="~" horiz-adv-x="555" 
d="M506 334q-26 -69 -76 -90.5t-117 11.5l-109 63q-52 24 -92.5 7t-60.5 -63l-37 18q30 68 85 91.5t126 -11.5l102 -58q102 -55 138 48z" />
    <glyph glyph-name="exclamdown" unicode="&#xa1;" horiz-adv-x="195" 
d="M63 -201h51v559h-51v-559zM126 464q0 -18 -12.5 -28.5t-27 -10.5t-27 10.5t-12.5 28.5t12.5 28.5t27 10.5t27 -10.5t12.5 -28.5z" />
    <glyph glyph-name="cent" unicode="&#xa2;" horiz-adv-x="575" 
d="M338 -14v-71h-48v71q-101 9 -166 75t-65 176q0 106 65 174t166 77v60h48v-60q91 -10 156 -73l-34 -31q-62 60 -146 60q-89 0 -148 -54.5t-59 -152.5q0 -100 58.5 -153t148.5 -53q82 0 146 62l34 -35q-66 -64 -156 -72z" />
    <glyph glyph-name="sterling" unicode="&#xa3;" horiz-adv-x="663" 
d="M59 308v43h80q-27 101 -27 156q0 98 67.5 148.5t171.5 50.5q99 0 162 -42t64 -139h-46q0 52 -29 83.5t-66 41.5t-85 10q-86 0 -138 -39.5t-52 -113.5q0 -19 3 -41.5t6 -37t9.5 -41t8.5 -36.5h259v-43h-250q7 -46 7 -87.5t-21 -86.5t-64 -86h465v-48h-525v45q50 51 74 98
t24.5 85t-7.5 80h-91z" />
    <glyph glyph-name="currency" unicode="&#xa4;" horiz-adv-x="562" 
d="M481 514l-59 -59q43 -56 42.5 -130t-43.5 -129l60 -60l-35 -35l-61 60q-50 -37 -123 -37t-124 37l-60 -60l-35 35l60 60q-43 55 -43.5 129.5t42.5 129.5l-59 59l35 35l59 -60q52 39 125 39q72 0 124 -39l60 60zM262 171q42 0 74.5 17t49.5 44.5t25 60.5t0 66.5t-25 61
t-49.5 44.5t-74.5 17t-75 -17t-50 -44.5t-25 -60.5t0 -66.5t25 -61t50 -44.5t75 -17z" />
    <glyph glyph-name="yen" unicode="&#xa5;" horiz-adv-x="627" 
d="M123 167v41h154v63h-154v41h133l-252 387v1h61l239 -368l240 368h61v-1l-254 -387h139v-41h-160v-63h160v-41h-160v-167h-53v167h-154z" />
    <glyph glyph-name="brokenbar" unicode="&#xa6;" horiz-adv-x="195" 
d="M107 342h-54v364h54v-364zM53 275h54v-363h-54v363z" />
    <glyph glyph-name="section" unicode="&#xa7;" horiz-adv-x="539" 
d="M444 650l-30 -31q-59 51 -154 51q-62 1 -106 -22.5t-43 -66.5q1 -23 14 -40t39.5 -27t44.5 -14.5t51 -10.5q34 -5 57 -10t54.5 -16t50 -24.5t31.5 -36.5t12 -52q-3 -87 -102 -111q106 -32 102 -121q-1 -50 -35 -82t-76 -42.5t-92 -10.5q-68 0 -126.5 25t-89.5 72l36 31
q29 -41 78.5 -61.5t102.5 -20.5q26 0 49.5 4t48.5 13.5t40.5 28.5t16.5 46q1 31 -25 51t-48.5 25.5t-78.5 14.5q-7 1 -10 2q-191 30 -193 134q-1 37 24.5 70.5t68.5 48.5q-92 33 -93 113q-1 67 57 101.5t140 33.5q115 0 184 -65zM418 353q-1 32 -33 56t-78 31t-91 3t-76 -29
t-29 -65q1 -32 33 -55.5t77.5 -29.5t90.5 -1t76 29t30 61z" />
    <glyph glyph-name="dieresis" unicode="&#xa8;" horiz-adv-x="455" 
d="M64 678q0 18 12.5 28.5t27 10.5t27 -10.5t12.5 -28.5t-12.5 -28.5t-27 -10.5t-27 10.5t-12.5 28.5zM278 678q0 18 12.5 28.5t27 10.5t27 -10.5t12.5 -28.5t-12.5 -28.5t-27 -10.5t-27 10.5t-12.5 28.5z" />
    <glyph glyph-name="copyright" unicode="&#xa9;" horiz-adv-x="881" 
d="M425 713q167 0 264 -104.5t97 -260.5q0 -155 -97 -260t-264 -105q-168 0 -264.5 105t-96.5 260q0 156 96.5 260.5t264.5 104.5zM574 212l-35 37q-43 -43 -102 -43q-61 0 -103 42t-42 103t42 102.5t103 41.5q58 0 102 -42l35 36q-55 57 -137 57q-83 0 -139.5 -56
t-56.5 -139t56.5 -139.5t139.5 -56.5q82 0 137 57zM114 348q0 -138 83.5 -229t227.5 -91t227 91t83 229q0 139 -83 230t-227 91t-227.5 -91t-83.5 -230z" />
    <glyph glyph-name="ordfeminine" unicode="&#xaa;" horiz-adv-x="467" 
d="M331 639v62h44v-324h-44v63q-45 -67 -127 -67q-70 0 -117.5 45.5t-47.5 121.5t47.5 121t117.5 45q84 0 127 -67zM207 660q-50 0 -84 -33.5t-34 -86.5t34 -87t84 -34q45 0 76 25t38 60.5t0 70.5t-38 60t-76 25zM51 267v48h334v-48h-334z" />
    <glyph glyph-name="guillemotleft" unicode="&#xab;" horiz-adv-x="372" 
d="M30 317l138 219h52v-5l-135 -214l135 -214v-6h-52zM262 97l-138 220l138 219h52v-5l-135 -214l135 -214v-6h-52z" />
    <glyph glyph-name="logicalnot" unicode="&#xac;" horiz-adv-x="452" 
d="M385 362v-187h-50v136h-297v51h347z" />
    <glyph glyph-name="registered" unicode="&#xae;" horiz-adv-x="914" 
d="M442 713q168 0 264.5 -104.5t96.5 -260.5q0 -155 -96.5 -260t-264.5 -105q-167 0 -264 105t-97 260q0 156 97 260.5t264 104.5zM132 348q0 -138 83 -229t227 -91t227.5 91t83.5 229q0 139 -83.5 230t-227.5 91t-227 -91t-83 -230zM496 306q54 7 83.5 45.5t27.5 81.5
t-36 77.5t-92 34.5h-170v-383h47v144h83l125 -144h52v8zM356 348v151h123q31 0 51.5 -15.5t25.5 -37.5t-0.5 -44.5t-27 -38t-52.5 -15.5h-120z" />
    <glyph glyph-name="degree" unicode="&#xb0;" horiz-adv-x="354" 
d="M164 529q-50 0 -78.5 30.5t-28.5 67.5t28.5 67.5t78.5 30.5t78 -30.5t28 -67.5t-28 -67.5t-78 -30.5zM164 568q37 0 52 30t0 59.5t-52 29.5t-54 -29.5t-1.5 -59.5t55.5 -30z" />
    <glyph glyph-name="plusminus" unicode="&#xb1;" horiz-adv-x="519" 
d="M73 345v45h163v164h46v-164h162v-45h-162v-166h-46v166h-163zM81 47v47h358v-47h-358z" />
    <glyph glyph-name="twosuperior" unicode="&#xb2;" horiz-adv-x="462" 
d="M143 683h-46q0 106 135 106q56 0 94.5 -24t38.5 -82q0 -108 -132 -108q-33 0 -61.5 -15t-28.5 -53v-37h216v-42h-264v80q0 52 40.5 80.5t97.5 28.5q85 0 85 66q0 64 -87 64q-41 0 -64.5 -13t-23.5 -51z" />
    <glyph glyph-name="threesuperior" unicode="&#xb3;" horiz-adv-x="405" 
d="M196 593h-55v43h51q34 0 60 13.5t26 42.5q0 22 -23 39.5t-63 17.5q-32 0 -59.5 -15t-27.5 -50h-43q0 53 37.5 79t92.5 26t93.5 -25.5t38.5 -72.5q0 -30 -16 -50t-42 -27q30 -8 47.5 -31t17.5 -48q0 -110 -139 -110q-58 0 -96 25.5t-39 81.5h48q0 -62 88 -62q91 0 91 65
q0 21 -22 39.5t-66 18.5z" />
    <glyph glyph-name="acute" unicode="&#xb4;" horiz-adv-x="224" 
d="M87 577h-48v4l75 120h65v-1z" />
    <glyph glyph-name="mu" unicode="&#xb5;" horiz-adv-x="633" 
d="M481 70q-34 -60 -108.5 -81.5t-145.5 2.5t-95 82v-299h-51v717h49v-298q0 -63 35.5 -108.5t86.5 -57t102.5 -1.5t87 58.5t35.5 122.5v284h49v-491h-42z" />
    <glyph glyph-name="mu" unicode="&#x3bc;" horiz-adv-x="633" 
d="M481 70q-34 -60 -108.5 -81.5t-145.5 2.5t-95 82v-299h-51v717h49v-298q0 -63 35.5 -108.5t86.5 -57t102.5 -1.5t87 58.5t35.5 122.5v284h49v-491h-42z" />
    <glyph glyph-name="paragraph" unicode="&#xb6;" horiz-adv-x="811" 
d="M337 655v-871h-49v411q-68 0 -120.5 28t-79.5 72t-39 98t1.5 108t41.5 98t80.5 72t119.5 28h467v-44h-106v-871h-47v871h-269z" />
    <glyph glyph-name="periodcentered" unicode="&#xb7;" horiz-adv-x="179" 
d="M36 339q0 18 12.5 28.5t27 10.5t27 -10.5t12.5 -28.5t-12.5 -28.5t-27 -10.5t-27 10.5t-12.5 28.5z" />
    <glyph glyph-name="cedilla" unicode="&#xb8;" horiz-adv-x="296" 
d="M94 -71l-6 5l20 88h39l-13 -58q57 3 80.5 -28.5t13.5 -72.5q-9 -35 -38 -52.5t-65 -17.5q-74 0 -103 53l28 27q27 -39 75 -39q53 0 63 38q9 30 -16.5 49t-77.5 8z" />
    <glyph glyph-name="onesuperior" unicode="&#xb9;" horiz-adv-x="282" 
d="M53 427v42h53v270h-55v42h103v-312h51v-42h-152z" />
    <glyph glyph-name="ordmasculine" unicode="&#xba;" horiz-adv-x="407" 
d="M97 630v-52q0 -42 20 -71.5t48.5 -36.5t57 -0.5t48.5 36t20 72.5v52q0 44 -20 74t-48.5 37t-57 0t-48.5 -37t-20 -74zM50 578v52q0 43 16 77t41.5 52t56.5 26t62 -0.5t56.5 -26t41.5 -51.5t16 -77v-52q0 -43 -16 -77t-41.5 -51.5t-56.5 -25.5t-62 0t-56.5 25.5
t-41.5 51.5t-16 77z" />
    <glyph glyph-name="guillemotright" unicode="&#xbb;" horiz-adv-x="372" 
d="M315 317l-138 -220h-52v6l135 214l-135 214v5h52zM221 317l-138 -220h-52v6l135 214l-135 214v5h52z" />
    <glyph glyph-name="onequarter" unicode="&#xbc;" horiz-adv-x="776" 
d="M580 356h65v-233h42v-44h-42v-78h-45v78h-192l-3 37zM461 123h139v189zM198 -7h-53l373 714h54zM67 349v42h53v267h-55v42h103v-309h51v-42h-152z" />
    <glyph glyph-name="onehalf" unicode="&#xbd;" horiz-adv-x="812" 
d="M198 -7h-53l373 714h54zM67 349v42h53v267h-55v42h103v-309h51v-42h-152zM516 255h-46q0 106 135 106q56 0 94.5 -24t38.5 -82q0 -108 -132 -108q-33 0 -61.5 -15t-28.5 -53v-37h216v-42h-264v80q0 52 40.5 80.5t97.5 28.5q85 0 85 66q0 64 -87 64q-41 0 -64.5 -13
t-23.5 -51z" />
    <glyph glyph-name="threequarters" unicode="&#xbe;" horiz-adv-x="798" 
d="M620 356h65v-233h42v-44h-42v-78h-45v78h-192l-3 37zM501 123h139v189zM244 -7h-51l385 714h53zM190 520h-54v42h50q33 0 59 13t26 42q0 22 -23 39t-62 17q-31 0 -58 -14.5t-27 -49.5h-42q0 52 36.5 77.5t90.5 25.5q55 0 92.5 -24.5t37.5 -71.5q0 -60 -57 -76
q30 -7 47 -30t17 -47q0 -59 -39 -83.5t-98 -24.5q-56 0 -93.5 25t-38.5 80h47q0 -61 86 -61q90 0 90 64q0 20 -22 38.5t-65 18.5z" />
    <glyph glyph-name="questiondown" unicode="&#xbf;" horiz-adv-x="647" 
d="M579 -12h-52q0 -44 -20.5 -76.5t-54 -49t-68.5 -23.5t-73 -7q-219 0 -219 153q0 114 107 146q92 27 124.5 73.5t32.5 150.5h-50q0 -94 -20.5 -124.5t-99.5 -54.5q-60 -18 -102.5 -63.5t-42.5 -127.5q0 -46 16 -82t42 -58t62 -36t72.5 -19.5t77.5 -5.5q39 0 76 6.5
t72.5 22t61.5 38t42 58t16 79.5zM366 460q0 -25 -19.5 -35t-39 0t-19.5 35t19.5 35t39 0t19.5 -35z" />
    <glyph glyph-name="Agrave" unicode="&#xc0;" horiz-adv-x="694" 
d="M679 0h-58l-77 172h-418l-76 -172h-58l314 700h59zM147 222h376l-188 426zM363 772h-48l-92 123v1h65l75 -120v-4z" />
    <glyph glyph-name="Aacute" unicode="&#xc1;" horiz-adv-x="694" 
d="M621 0h58l-314 700h-59l-314 -700h58l76 172h418zM523 222h-376l188 426zM351 771h-48v4l75 120h65v-1z" />
    <glyph glyph-name="Acircumflex" unicode="&#xc2;" horiz-adv-x="694" 
d="M621 0h58l-314 700h-59l-314 -700h58l76 172h418zM523 222h-376l188 426zM173 766l142 132h40l142 -132v-7h-53l-109 96l-109 -96h-53v7z" />
    <glyph glyph-name="Atilde" unicode="&#xc3;" horiz-adv-x="694" 
d="M679 0h-58l-77 172h-418l-76 -172h-58l314 700h59zM147 222h376l-188 426zM244 785l-34 11q5 44 40.5 60.5t71.5 -2.5l41 -22q18 -10 36.5 -4t24.5 30l34 -11q-4 -45 -40 -61.5t-72 3.5l-41 22q-18 10 -36.5 3.5t-24.5 -29.5z" />
    <glyph glyph-name="Adieresis" unicode="&#xc4;" horiz-adv-x="694" 
d="M621 0h58l-314 700h-59l-314 -700h58l76 172h418zM523 222h-376l188 426zM190 811q0 18 12.5 28.5t27 10.5t27 -10.5t12.5 -28.5t-12.5 -28.5t-27 -10.5t-27 10.5t-12.5 28.5zM404 811q0 18 12.5 28.5t27 10.5t27 -10.5t12.5 -28.5t-12.5 -28.5t-27 -10.5t-27 10.5
t-12.5 28.5z" />
    <glyph glyph-name="Aring" unicode="&#xc5;" horiz-adv-x="694" 
d="M232 788q0 45 31 70.5t74 25.5t75 -25.5t32 -70.5q0 -37 -20.5 -62.5t-55.5 -33.5l311 -692h-58l-77 172h-418l-76 -172h-58l311 693q-71 18 -71 95zM147 222h376l-188 426zM336 846q-37 0 -52.5 -30t0 -59.5t52.5 -29.5q39 0 55 29.5t0 59.5t-55 30z" />
    <glyph glyph-name="AE" unicode="&#xc6;" horiz-adv-x="957" 
d="M521 651v-274h345v-49h-345v-277h379v-51h-429v248h-250l-147 -248h-62l426 700h448v-49h-365zM471 297v362h-5l-216 -362h221z" />
    <glyph glyph-name="Ccedilla" unicode="&#xc7;" horiz-adv-x="673" 
d="M342 -96l-6 5l21 84q-156 10 -242.5 110t-87.5 243q-1 96 38 177t123 133t199 52q150 0 255 -105l-37 -32q-89 89 -218 89q-147 0 -228 -89.5t-80 -222.5q2 -130 82.5 -218t225.5 -88q128 0 219 89l36 -34q-102 -102 -247 -105l-12 -53q57 3 81 -28.5t14 -72.5
q-9 -35 -38.5 -53.5t-65.5 -18.5q-32 0 -61 14t-43 40l29 28q27 -39 75 -39q53 0 63 38q9 30 -17 49t-78 8z" />
    <glyph glyph-name="Egrave" unicode="&#xc8;" horiz-adv-x="614" 
d="M117 649v-272h410v-49h-410v-276h442v-52h-495v700h483v-51h-430zM365 781h-48l-92 123v1h65l75 -120v-4z" />
    <glyph glyph-name="Eacute" unicode="&#xc9;" horiz-adv-x="614" 
d="M117 377v272h430v51h-483v-700h495v52h-442v276h410v49h-410zM321 778h-48v4l75 120h65v-1z" />
    <glyph glyph-name="Ecircumflex" unicode="&#xca;" horiz-adv-x="614" 
d="M117 377v272h430v51h-483v-700h495v52h-442v276h410v49h-410zM153 780l142 132h40l142 -132v-7h-53l-109 96l-109 -96h-53v7z" />
    <glyph glyph-name="Edieresis" unicode="&#xcb;" horiz-adv-x="614" 
d="M117 377v272h430v51h-483v-700h495v52h-442v276h410v49h-410zM175 818q0 18 12.5 28.5t27 10.5t27 -10.5t12.5 -28.5t-12.5 -28.5t-27 -10.5t-27 10.5t-12.5 28.5zM389 818q0 18 12.5 28.5t27 10.5t27 -10.5t12.5 -28.5t-12.5 -28.5t-27 -10.5t-27 10.5t-12.5 28.5z" />
    <glyph glyph-name="Igrave" unicode="&#xcc;" horiz-adv-x="208" 
d="M118 0h-53v700h53v-700zM123 778h-48l-92 123v1h65l75 -120v-4z" />
    <glyph glyph-name="Iacute" unicode="&#xcd;" horiz-adv-x="208" 
d="M65 0h53v700h-53v-700zM111 777h-48v4l75 120h65v-1z" />
    <glyph glyph-name="Icircumflex" unicode="&#xce;" horiz-adv-x="208" 
d="M65 0h53v700h-53v-700zM-58 767l128 131h36l127 -131v-7h-47l-98 95l-98 -95h-48v7z" />
    <glyph glyph-name="Idieresis" unicode="&#xcf;" horiz-adv-x="208" 
d="M-28 810q0 18 12.5 28.5t27 10.5t27 -10.5t12.5 -28.5t-12.5 -28.5t-27 -10.5t-27 10.5t-12.5 28.5zM132 810q0 18 12.5 28.5t27 10.5t27 -10.5t12.5 -28.5t-12.5 -28.5t-27 -10.5t-27 10.5t-12.5 28.5zM65 0h53v700h-53v-700z" />
    <glyph glyph-name="Eth" unicode="&#xd0;" horiz-adv-x="709" 
d="M-8 317v49h67v334h237q86 0 154.5 -29t111 -78t65 -109t24.5 -126q2 -68 -19.5 -131t-64 -114.5t-112.5 -82t-159 -30.5h-237v317h-67zM296 649h-183v-283h163v-49h-163v-265h183q146 0 224.5 91.5t76.5 214.5q-2 120 -80.5 205.5t-220.5 85.5z" />
    <glyph glyph-name="Ntilde" unicode="&#xd1;" horiz-adv-x="704" 
d="M65 700h23l471 -579v579h53v-700h-21l-472 578v-578h-54v700zM265 782l-34 11q5 44 40.5 60.5t71.5 -2.5l41 -22q18 -10 36.5 -4t24.5 30l34 -11q-4 -45 -40 -61.5t-72 3.5l-41 22q-18 10 -36.5 3.5t-24.5 -29.5z" />
    <glyph glyph-name="Ograve" unicode="&#xd2;" horiz-adv-x="804" 
d="M387 711q168 0 261 -105.5t92 -256.5q0 -70 -23 -134t-65.5 -115t-111 -81.5t-153.5 -30.5t-153.5 30.5t-111.5 82t-65.5 115.5t-22.5 135q0 97 38 177t120 131.5t195 51.5zM387 661q-144 0 -222.5 -89.5t-77.5 -221.5q1 -128 80 -220t220 -92q96 0 166 46t102.5 115
t32.5 151q0 130 -79 220.5t-222 90.5zM421 783h-48l-92 123v1h65l75 -120v-4z" />
    <glyph glyph-name="Oacute" unicode="&#xd3;" horiz-adv-x="804" 
d="M387 711q-113 0 -195 -51.5t-120 -131.5t-38 -177q0 -71 22.5 -135t65.5 -115.5t111.5 -82t153.5 -30.5t153.5 30.5t111 81.5t65.5 115t23 134q1 151 -92 256.5t-261 105.5zM387 661q143 0 222 -90.5t79 -220.5q0 -82 -32.5 -151t-102.5 -115t-166 -46q-141 0 -220 92
t-80 220q-1 132 77.5 221.5t222.5 89.5zM407 783h-48v4l75 120h65v-1z" />
    <glyph glyph-name="Ocircumflex" unicode="&#xd4;" horiz-adv-x="804" 
d="M387 711q-113 0 -195 -51.5t-120 -131.5t-38 -177q0 -71 22.5 -135t65.5 -115.5t111.5 -82t153.5 -30.5t153.5 30.5t111 81.5t65.5 115t23 134q1 151 -92 256.5t-261 105.5zM387 661q143 0 222 -90.5t79 -220.5q0 -82 -32.5 -151t-102.5 -115t-166 -46q-141 0 -220 92
t-80 220q-1 132 77.5 221.5t222.5 89.5zM232 786l142 132h40l142 -132v-7h-53l-109 96l-109 -96h-53v7z" />
    <glyph glyph-name="Otilde" unicode="&#xd5;" horiz-adv-x="804" 
d="M387 711q168 0 261 -105.5t92 -256.5q0 -70 -23 -134t-65.5 -115t-111 -81.5t-153.5 -30.5t-153.5 30.5t-111.5 82t-65.5 115.5t-22.5 135q0 97 38 177t120 131.5t195 51.5zM387 661q-144 0 -222.5 -89.5t-77.5 -221.5q1 -128 80 -220t220 -92q96 0 166 46t102.5 115
t32.5 151q0 130 -79 220.5t-222 90.5zM297 798l-34 11q5 44 40.5 60.5t71.5 -2.5l41 -22q18 -10 36.5 -4t24.5 30l34 -11q-4 -45 -40 -61.5t-72 3.5l-41 22q-18 10 -36.5 3.5t-24.5 -29.5z" />
    <glyph glyph-name="Odieresis" unicode="&#xd6;" horiz-adv-x="804" 
d="M387 711q-113 0 -195 -51.5t-120 -131.5t-38 -177q0 -71 22.5 -135t65.5 -115.5t111.5 -82t153.5 -30.5t153.5 30.5t111 81.5t65.5 115t23 134q1 151 -92 256.5t-261 105.5zM387 661q143 0 222 -90.5t79 -220.5q0 -82 -32.5 -151t-102.5 -115t-166 -46q-141 0 -220 92
t-80 220q-1 132 77.5 221.5t222.5 89.5zM252 822q0 18 12.5 28.5t27 10.5t27 -10.5t12.5 -28.5t-12.5 -28.5t-27 -10.5t-27 10.5t-12.5 28.5zM466 822q0 18 12.5 28.5t27 10.5t27 -10.5t12.5 -28.5t-12.5 -28.5t-27 -10.5t-27 10.5t-12.5 28.5z" />
    <glyph glyph-name="multiply" unicode="&#xd7;" horiz-adv-x="425" 
d="M41 447l31 31l124 -123l122 122l34 -33l-123 -123l124 -123l-31 -31l-124 123l-127 -127l-33 33l127 128z" />
    <glyph glyph-name="Oslash" unicode="&#xd8;" horiz-adv-x="804" 
d="M183 -79h-53l66 116q-79 48 -120.5 132t-41.5 182q0 97 38 177t120 131.5t195 51.5q96 0 170 -38l50 88h54l-64 -111q70 -49 106.5 -128.5t36.5 -172.5q0 -70 -23 -134t-65.5 -115t-111 -81.5t-153.5 -30.5q-79 0 -150 28zM387 661q-144 0 -222.5 -89.5t-77.5 -221.5
q0 -82 35 -153.5t100 -113.5l310 546q-66 32 -145 32zM387 38q96 0 166 46t102.5 115t32.5 151q0 77 -30 144t-86 110l-309 -543q55 -23 124 -23z" />
    <glyph glyph-name="Ugrave" unicode="&#xd9;" horiz-adv-x="683" 
d="M547 700h53v-435q0 -66 -23 -119.5t-60.5 -86.5t-86 -51t-98.5 -18t-98.5 17.5t-86 50.5t-60.5 87t-23 120v435h53v-435q0 -54 18.5 -98t48.5 -71t69 -42t79 -15t79 15t69 42t48.5 71t18.5 98v435zM375 774h-48l-92 123v1h65l75 -120v-4z" />
    <glyph glyph-name="Uacute" unicode="&#xda;" horiz-adv-x="683" 
d="M600 700h-53v-435q0 -54 -18.5 -98t-48.5 -71t-69 -42t-79 -15t-79 15t-69 42t-48.5 71t-18.5 98v435h-53v-435q0 -88 39.5 -152t99.5 -93t129 -29t129 29t99.5 93.5t39.5 151.5v435zM339 775h-48v4l75 120h65v-1z" />
    <glyph glyph-name="Ucircumflex" unicode="&#xdb;" horiz-adv-x="683" 
d="M600 700h-53v-435q0 -54 -18.5 -98t-48.5 -71t-69 -42t-79 -15t-79 15t-69 42t-48.5 71t-18.5 98v435h-53v-435q0 -88 39.5 -152t99.5 -93t129 -29t129 29t99.5 93.5t39.5 151.5v435zM170 775l142 132h40l142 -132v-7h-53l-109 96l-109 -96h-53v7z" />
    <glyph glyph-name="Udieresis" unicode="&#xdc;" horiz-adv-x="683" 
d="M600 700h-53v-435q0 -54 -18.5 -98t-48.5 -71t-69 -42t-79 -15t-79 15t-69 42t-48.5 71t-18.5 98v435h-53v-435q0 -88 39.5 -152t99.5 -93t129 -29t129 29t99.5 93.5t39.5 151.5v435zM186 819q0 18 12.5 28.5t27 10.5t27 -10.5t12.5 -28.5t-12.5 -28.5t-27 -10.5
t-27 10.5t-12.5 28.5zM400 819q0 18 12.5 28.5t27 10.5t27 -10.5t12.5 -28.5t-12.5 -28.5t-27 -10.5t-27 10.5t-12.5 28.5z" />
    <glyph glyph-name="Yacute" unicode="&#xdd;" horiz-adv-x="639" 
d="M277 280v-280h54v280l274 419v1h-63l-238 -368l-237 368h-63v-1zM312 777h-48v4l75 120h65v-1z" />
    <glyph glyph-name="Thorn" unicode="&#xde;" horiz-adv-x="654" 
d="M67 0v699h50v-122h257q55 0 99.5 -19.5t72 -52t42 -73.5t14.5 -84t-14.5 -84t-42 -73.5t-72 -52t-99.5 -19.5h-256v-119h-51zM374 527h-256v-359h256q48 0 85.5 20t57 51.5t28.5 70t0 76.5t-28.5 69.5t-57 51.5t-85.5 20z" />
    <glyph glyph-name="germandbls" unicode="&#xdf;" horiz-adv-x="587" 
d="M177 357v44h81q30 0 57 5.5t54 19t43.5 40.5t16.5 65q0 135 -163 135q-84 0 -121 -39.5t-40 -109.5v-517h-48v518q0 95 58.5 144t148.5 49q94 0 153.5 -44.5t59.5 -135.5q0 -54 -30.5 -94t-81.5 -53q158 -33 158 -201q0 -72 -33 -120t-85 -64.5t-111.5 -13t-116.5 26.5
v46q75 -32 141.5 -30.5t112 43t45.5 111.5q0 175 -214 175h-85z" />
    <glyph glyph-name="agrave" unicode="&#xe0;" 
d="M481 494h49v-494h-49v105q-70 -113 -202 -113q-105 0 -178 72t-73 183t72.5 182t178.5 71q63 0 117.5 -29t84.5 -85v108zM279 453q-86 0 -144 -57.5t-58 -148.5t58 -149t144 -58q57 0 101 23t67 59t34 80t0 88.5t-34 80.5t-67 59t-101 23zM330 584h-48l-92 123v1h65
l75 -120v-4z" />
    <glyph glyph-name="aacute" unicode="&#xe1;" 
d="M530 494h-49v-108q-30 56 -84.5 85t-117.5 29q-106 0 -178.5 -71t-72.5 -182t73 -183t178 -72q132 0 202 113v-105h49v494zM279 453q66 0 114 -30.5t70 -76.5t22 -99.5t-22 -99.5t-70 -76.5t-114 -30.5q-86 0 -144 58t-58 149t58 148.5t144 57.5zM296 582h-48v4l75 120
h65v-1z" />
    <glyph glyph-name="acircumflex" unicode="&#xe2;" 
d="M530 494h-49v-108q-30 56 -84.5 85t-117.5 29q-106 0 -178.5 -71t-72.5 -182t73 -183t178 -72q132 0 202 113v-105h49v494zM279 453q66 0 114 -30.5t70 -76.5t22 -99.5t-22 -99.5t-70 -76.5t-114 -30.5q-86 0 -144 58t-58 149t58 148.5t144 57.5zM127 571l142 132h40
l142 -132v-7h-53l-109 96l-109 -96h-53v7z" />
    <glyph glyph-name="atilde" unicode="&#xe3;" 
d="M481 494h49v-494h-49v105q-70 -113 -202 -113q-105 0 -178 72t-73 183t72.5 182t178.5 71q63 0 117.5 -29t84.5 -85v108zM279 453q-86 0 -144 -57.5t-58 -148.5t58 -149t144 -58q57 0 101 23t67 59t34 80t0 88.5t-34 80.5t-67 59t-101 23zM201 623l-34 11q5 44 40.5 60.5
t71.5 -2.5l41 -22q18 -10 36.5 -4t24.5 30l34 -11q-4 -45 -40 -61.5t-72 3.5l-41 22q-18 10 -36.5 3.5t-24.5 -29.5z" />
    <glyph glyph-name="adieresis" unicode="&#xe4;" 
d="M530 494h-49v-108q-30 56 -84.5 85t-117.5 29q-106 0 -178.5 -71t-72.5 -182t73 -183t178 -72q132 0 202 113v-105h49v494zM279 453q66 0 114 -30.5t70 -76.5t22 -99.5t-22 -99.5t-70 -76.5t-114 -30.5q-86 0 -144 58t-58 149t58 148.5t144 57.5zM152 668q0 18 12.5 28.5
t27 10.5t27 -10.5t12.5 -28.5t-12.5 -28.5t-27 -10.5t-27 10.5t-12.5 28.5zM366 668q0 18 12.5 28.5t27 10.5t27 -10.5t12.5 -28.5t-12.5 -28.5t-27 -10.5t-27 10.5t-12.5 28.5z" />
    <glyph glyph-name="aring" unicode="&#xe5;" 
d="M481 494h49v-494h-49v105q-70 -113 -202 -113q-105 0 -178 72t-73 183t72.5 182t178.5 71q63 0 117.5 -29t84.5 -85v108zM279 453q-86 0 -144 -57.5t-58 -148.5t58 -149t144 -58q57 0 101 23t67 59t34 80t0 88.5t-34 80.5t-67 59t-101 23zM188 652q0 43 30.5 67t73.5 24
t75 -24t32 -67q0 -44 -30.5 -69t-77.5 -25q-48 0 -75.5 25t-27.5 69zM291 707q-37 0 -52 -27.5t0 -55t52 -27.5q39 0 55 27.5t0 55t-55 27.5z" />
    <glyph glyph-name="ae" unicode="&#xe6;" horiz-adv-x="1042" 
d="M726 -7q-66 0 -119 28t-84 79v-100h-41v105q-70 -113 -203 -113q-105 0 -178 72t-73 183t72.5 182t178.5 71q63 0 119.5 -29.5t85.5 -84.5v108h41v-104q31 53 83.5 82.5t117.5 29.5q114 0 185.5 -71t58.5 -207h-447q7 -84 65 -133.5t138 -49.5q51 0 101 20t77 55l35 -28
q-35 -46 -93 -70.5t-120 -24.5zM279 453q-86 0 -144 -57.5t-58 -148.5t58 -149t144 -58q50 0 90.5 17.5t65 47t38 66.5t13.5 75.5t-13.5 75.5t-38 66.5t-65 47t-90.5 17.5zM523 267h403q-1 90 -55 140t-145 50q-79 0 -137 -51t-66 -139z" />
    <glyph glyph-name="ccedilla" unicode="&#xe7;" horiz-adv-x="505" 
d="M228 -88l-6 5l18 81q-93 12 -153.5 79t-60.5 170q0 115 72 183.5t182 68.5q104 0 180 -74l-32 -31q-59 59 -148 59q-88 0 -147 -55t-59 -151t59 -151t147 -55q86 0 147 61l33 -33q-74 -74 -180 -74h-1l-11 -48q57 3 80.5 -28.5t13.5 -72.5q-9 -35 -38 -52.5t-65 -17.5
q-74 0 -103 53l28 27q27 -39 75 -39q53 0 63 38q9 30 -16.5 49t-77.5 8z" />
    <glyph glyph-name="egrave" unicode="&#xe8;" horiz-adv-x="594" 
d="M278 -7q-107 0 -179 69.5t-72 184.5q0 110 73 182.5t178 72.5q114 0 185.5 -71t58.5 -207h-445q7 -84 64.5 -133.5t136.5 -49.5q51 0 101 20t77 55l35 -28q-35 -46 -93 -70.5t-120 -24.5zM77 267h401q-1 90 -55 140t-145 50q-79 0 -136 -51t-65 -139zM333 577h-48
l-92 123v1h65l75 -120v-4z" />
    <glyph glyph-name="eacute" unicode="&#xe9;" horiz-adv-x="594" 
d="M278 -7q62 0 120 24.5t93 70.5l-35 28q-27 -35 -77 -55t-101 -20q-79 0 -136.5 49.5t-64.5 133.5h445q13 136 -58.5 207t-185.5 71q-105 0 -178 -72.5t-73 -182.5q0 -115 72 -184.5t179 -69.5zM77 267q8 88 65 139t136 51q91 0 145 -50t55 -140h-401zM292 577h-48v4
l75 120h65v-1z" />
    <glyph glyph-name="ecircumflex" unicode="&#xea;" horiz-adv-x="594" 
d="M278 -7q62 0 120 24.5t93 70.5l-35 28q-27 -35 -77 -55t-101 -20q-79 0 -136.5 49.5t-64.5 133.5h445q13 136 -58.5 207t-185.5 71q-105 0 -178 -72.5t-73 -182.5q0 -115 72 -184.5t179 -69.5zM77 267q8 88 65 139t136 51q91 0 145 -50t55 -140h-401zM124 569l142 132h40
l142 -132v-7h-53l-109 96l-109 -96h-53v7z" />
    <glyph glyph-name="edieresis" unicode="&#xeb;" horiz-adv-x="594" 
d="M278 -7q62 0 120 24.5t93 70.5l-35 28q-27 -35 -77 -55t-101 -20q-79 0 -136.5 49.5t-64.5 133.5h445q13 136 -58.5 207t-185.5 71q-105 0 -178 -72.5t-73 -182.5q0 -115 72 -184.5t179 -69.5zM77 267q8 88 65 139t136 51q91 0 145 -50t55 -140h-401zM139 661
q0 18 12.5 28.5t27 10.5t27 -10.5t12.5 -28.5t-12.5 -28.5t-27 -10.5t-27 10.5t-12.5 28.5zM353 661q0 18 12.5 28.5t27 10.5t27 -10.5t12.5 -28.5t-12.5 -28.5t-27 -10.5t-27 10.5t-12.5 28.5z" />
    <glyph glyph-name="igrave" unicode="&#xec;" horiz-adv-x="172" 
d="M103 580h-46l-66 120v1h56l56 -117v-4zM52 496h49v-496h-49v496z" />
    <glyph glyph-name="iacute" unicode="&#xed;" horiz-adv-x="176" 
d="M87 580h-46v4l56 117h56v-1zM95 496h-49v-496h49v496z" />
    <glyph glyph-name="icircumflex" unicode="&#xee;" horiz-adv-x="192" 
d="M-30 581l98 120h31l93 -120v-7h-42l-67 84l-70 -84h-43v7zM104 496h-49v-496h49v496z" />
    <glyph glyph-name="idieresis" unicode="&#xef;" horiz-adv-x="193" 
d="M-27 658q0 23 18.5 32t37.5 0t19 -32t-18.5 -32t-37.5 0t-19 32zM111 658q0 23 18.5 32t37 0t18.5 -32t-18.5 -32t-37 0t-18.5 32zM104 496h-49v-496h49v496z" />
    <glyph glyph-name="eth" unicode="&#xf0;" horiz-adv-x="596" 
d="M363 716l32 -22l-46 -65q187 -125 190 -376q2 -118 -67.5 -191t-186.5 -73q-70 0 -124.5 27.5t-83 71.5t-41.5 97t0 106.5t41.5 97.5t83 71.5t124.5 27.5q103 0 185 -78q-31 104 -147 182l-42 -60l-32 22l41 59q-54 30 -104 43l14 42q68 -22 116 -49zM285 35
q56 0 100 22.5t66.5 58.5t33 79.5t0 87t-33 79.5t-66.5 58.5t-100 22.5t-100 -22.5t-66.5 -58.5t-33 -79.5t0 -87t33 -79.5t66.5 -58.5t100 -22.5z" />
    <glyph glyph-name="ntilde" unicode="&#xf1;" horiz-adv-x="575" 
d="M55 494h48v-88q53 95 176 97q100 0 161.5 -58.5t61.5 -159.5v-285h-49v284q0 83 -47 127.5t-129 43.5q-76 -1 -124.5 -52t-48.5 -128v-275h-49v494zM188 625l-34 10q5 41 40.5 56.5t70.5 -2.5l41 -21q18 -9 36.5 -3.5t24.5 27.5l34 -10q-4 -41 -40 -56.5t-72 2.5l-41 21
q-17 9 -35.5 3t-24.5 -27z" />
    <glyph glyph-name="ograve" unicode="&#xf2;" horiz-adv-x="592" 
d="M283 -7q-107 0 -179 69t-72 184t72 186t179 71t179 -71t72 -186t-72 -184t-179 -69zM283 41q87 0 145 56t58 149q0 94 -58.5 152.5t-144.5 58.5t-144.5 -58.5t-58.5 -152.5q0 -93 58 -149t145 -56zM324 586h-48l-92 119v1h65l75 -116v-4z" />
    <glyph glyph-name="oacute" unicode="&#xf3;" horiz-adv-x="592" 
d="M283 -7q107 0 179 69t72 184t-72 186t-179 71t-179 -71t-72 -186t72 -184t179 -69zM283 41q-87 0 -145 56t-58 149q0 94 58.5 152.5t144.5 58.5t144.5 -58.5t58.5 -152.5q0 -93 -58 -149t-145 -56zM297 580h-46v4l72 112h63v-1z" />
    <glyph glyph-name="ocircumflex" unicode="&#xf4;" horiz-adv-x="592" 
d="M283 -7q107 0 179 69t72 184t-72 186t-179 71t-179 -71t-72 -186t72 -184t179 -69zM283 41q-87 0 -145 56t-58 149q0 94 58.5 152.5t144.5 58.5t144.5 -58.5t58.5 -152.5q0 -93 -58 -149t-145 -56zM128 579l142 132h40l142 -132v-7h-53l-109 96l-109 -96h-53v7z" />
    <glyph glyph-name="otilde" unicode="&#xf5;" horiz-adv-x="592" 
d="M283 -7q-107 0 -179 69t-72 184t72 186t179 71t179 -71t72 -186t-72 -184t-179 -69zM283 41q87 0 145 56t58 149q0 94 -58.5 152.5t-144.5 58.5t-144.5 -58.5t-58.5 -152.5q0 -93 58 -149t145 -56zM198 622l-34 10q5 42 40.5 58.5t72.5 -2.5l41 -21q18 -10 36.5 -4
t24.5 29l34 -10q-4 -43 -40 -59.5t-72 3.5l-41 21q-18 9 -37 3t-25 -28z" />
    <glyph glyph-name="odieresis" unicode="&#xf6;" horiz-adv-x="592" 
d="M283 -7q107 0 179 69t72 184t-72 186t-179 71t-179 -71t-72 -186t72 -184t179 -69zM283 41q-87 0 -145 56t-58 149q0 94 58.5 152.5t144.5 58.5t144.5 -58.5t58.5 -152.5q0 -93 -58 -149t-145 -56zM142 643q0 18 12.5 28.5t27 10.5t27 -10.5t12.5 -28.5t-12.5 -28.5
t-27 -10.5t-27 10.5t-12.5 28.5zM356 643q0 18 12.5 28.5t27 10.5t27 -10.5t12.5 -28.5t-12.5 -28.5t-27 -10.5t-27 10.5t-12.5 28.5z" />
    <glyph glyph-name="divide" unicode="&#xf7;" horiz-adv-x="485" 
d="M36 359v-50h404v50h-404zM201 179q0 18 12.5 28.5t27 10.5t27 -10.5t12.5 -28.5t-12.5 -28.5t-27 -10.5t-27 10.5t-12.5 28.5zM201 484q0 18 12.5 28.5t27 10.5t27 -10.5t12.5 -28.5t-12.5 -28.5t-27 -10.5t-27 10.5t-12.5 28.5z" />
    <glyph glyph-name="oslash" unicode="&#xf8;" horiz-adv-x="592" 
d="M283 -7q-62 0 -110 22l-41 -69h-50l54 90q-104 69 -104 210q0 115 72 186t179 71q62 0 116 -26l37 62h51l-51 -85q98 -73 98 -208q0 -115 -72 -184t-179 -69zM283 457q-86 0 -144.5 -58.5t-58.5 -152.5q0 -112 81 -168l213 358q-44 21 -91 21zM283 41q87 0 145 56t58 149
q0 107 -75 167l-212 -356q36 -16 84 -16z" />
    <glyph glyph-name="ugrave" unicode="&#xf9;" horiz-adv-x="575" 
d="M501 0h-48v89q-53 -95 -176 -97q-100 0 -161.5 58.5t-61.5 159.5v285h49v-284q0 -83 47 -127.5t129 -43.5q76 1 124.5 52t48.5 128v275h49v-495zM325 577h-48l-92 123v1h65l75 -120v-4z" />
    <glyph glyph-name="uacute" unicode="&#xfa;" horiz-adv-x="575" 
d="M453 0h48v495h-49v-275q0 -77 -48.5 -128t-124.5 -52q-82 -1 -129 43.5t-47 127.5v284h-49v-285q0 -101 61.5 -159.5t161.5 -58.5q123 2 176 97v-89zM295 577h-48v4l75 120h65v-1z" />
    <glyph glyph-name="ucircumflex" unicode="&#xfb;" horiz-adv-x="575" 
d="M453 0h48v495h-49v-275q0 -77 -48.5 -128t-124.5 -52q-82 -1 -129 43.5t-47 127.5v284h-49v-285q0 -101 61.5 -159.5t161.5 -58.5q123 2 176 97v-89zM125 574l137 127h39l137 -127v-7h-51l-106 92l-105 -92h-51v7z" />
    <glyph glyph-name="udieresis" unicode="&#xfc;" horiz-adv-x="575" 
d="M453 0h48v495h-49v-275q0 -77 -48.5 -128t-124.5 -52q-82 -1 -129 43.5t-47 127.5v284h-49v-285q0 -101 61.5 -159.5t161.5 -58.5q123 2 176 97v-89zM140 661q0 18 12.5 28.5t27 10.5t27 -10.5t12.5 -28.5t-12.5 -28.5t-27 -10.5t-27 10.5t-12.5 28.5zM354 661
q0 18 12.5 28.5t27 10.5t27 -10.5t12.5 -28.5t-12.5 -28.5t-27 -10.5t-27 10.5t-12.5 28.5z" />
    <glyph glyph-name="yacute" unicode="&#xfd;" horiz-adv-x="517" 
d="M477 494h-53l-124 -291l-57 -144l-58 143l-115 292h-53l198 -488l-91 -212h52zM258 584h-45v4l70 113h62v-1z" />
    <glyph glyph-name="thorn" unicode="&#xfe;" horiz-adv-x="622" 
d="M105 -206h-47v905h46l1 -322q30 57 87 90.5t128 33.5q105 -4 172.5 -71.5t67.5 -182.5q0 -120 -71 -188t-180 -68q-65 0 -119 31.5t-85 91.5v-320zM309 38q88 0 145 54.5t57 154.5t-57 153.5t-145 53.5q-86 0 -143 -58.5t-57 -149.5q0 -90 57.5 -149t142.5 -59z" />
    <glyph glyph-name="ydieresis" unicode="&#xff;" horiz-adv-x="517" 
d="M477 494h-53l-124 -291l-57 -144l-58 143l-115 292h-53l198 -488l-91 -212h52zM112 667q0 24 19 33.5t37.5 0t18.5 -33.5q0 -23 -18.5 -32.5t-37.5 0t-19 32.5zM316 667q0 24 19 33.5t37.5 0t18.5 -33.5q0 -23 -18.5 -32.5t-37.5 0t-19 32.5z" />
    <glyph glyph-name="dotlessi" unicode="&#x131;" horiz-adv-x="189" 
d="M55 496h49v-496h-49v496z" />
    <glyph glyph-name="Lslash" unicode="&#x141;" horiz-adv-x="564" 
d="M64 700h54v-330l116 49v-54l-116 -48v-266h394v-51h-448v295l-70 -28v52l70 29v352z" />
    <glyph glyph-name="lslash" unicode="&#x142;" horiz-adv-x="199" 
d="M59 700h49v-333l81 33v-54l-81 -32v-314h-49v295l-72 -28v52l72 29v352z" />
    <glyph glyph-name="OE" unicode="&#x152;" horiz-adv-x="976" 
d="M521 652v-275h340v-49h-340v-280h377v-48h-423q-37 -5 -69 -5q-85 0 -153.5 29.5t-111.5 79.5t-65.5 113t-22.5 134q0 97 38 175.5t119.5 129t195.5 50.5q38 0 71 -6h406v-48h-362zM406 664q-97 0 -166.5 -44.5t-102 -114.5t-31.5 -155q1 -128 80 -219t220 -91q36 0 69 6
v612q-33 6 -69 6z" />
    <glyph glyph-name="oe" unicode="&#x153;" horiz-adv-x="1079" 
d="M743 -7q-76 0 -135 40t-85 106q-27 -70 -85.5 -108t-136.5 -38q-107 0 -179 69t-72 184t72 186t179 71q78 0 136.5 -40t85.5 -111q27 67 86 108.5t134 41.5q113 0 183 -70.5t57 -207.5q-290 0 -438 -1q7 -84 63 -133t135 -49q51 0 99 20t75 55l35 -28
q-35 -46 -91.5 -70.5t-117.5 -24.5zM301 41q86 0 143.5 55.5t57.5 149.5t-57.5 152.5t-143.5 58.5t-144.5 -58.5t-58.5 -152.5q0 -93 58 -149t145 -56zM545 267h394q-1 90 -53.5 140t-142.5 50q-79 0 -134.5 -51t-63.5 -139z" />
    <glyph glyph-name="Scaron" unicode="&#x160;" horiz-adv-x="642" 
d="M518 565l44 26q-48 71 -108.5 95t-147.5 24q-47 0 -91 -10t-85.5 -31t-66 -60.5t-23.5 -92.5q0 -31 9.5 -56t30.5 -43t40.5 -30t55.5 -22.5t58.5 -15.5t64.5 -13q38 -7 58 -11.5t52 -13.5t49.5 -19t36 -25t26.5 -35.5t8 -45.5q0 -44 -22 -75t-58 -46t-71 -21t-72 -6
q-70 0 -139.5 33.5t-99.5 93.5l-48 -24q38 -75 118 -113.5t169 -38.5q49 0 93.5 9t87.5 29.5t69.5 61t26.5 96.5q0 43 -15 75t-40.5 52t-60.5 34t-72.5 22.5t-78.5 16.5q-5 1 -8 1q-43 8 -68.5 13.5t-57 16.5t-48 23.5t-28.5 32.5t-12 46q0 52 37.5 86t82 45t92.5 11
q72 -1 124.5 -20t87.5 -75zM470 910l-142 -132h-40l-142 132v7h53l109 -96l109 96h53v-7z" />
    <glyph glyph-name="scaron" unicode="&#x161;" horiz-adv-x="499" 
d="M394 404l30 32q-70 66 -184 66q-82 1 -139.5 -34.5t-56.5 -103.5q0 -29 12 -50.5t27.5 -34.5t44.5 -23t50 -14.5t58 -10.5q32 -5 49 -8.5t42.5 -11t38 -17t22.5 -25t9 -36.5q-1 -36 -28.5 -58.5t-58.5 -29t-67 -6.5q-53 0 -102.5 21t-78.5 63l-36 -32q31 -48 89.5 -73.5
t126.5 -25.5q49 0 91.5 11t76.5 43.5t35 83.5q1 32 -11 56t-28.5 37.5t-47.5 24.5t-50.5 15t-54.5 10q-8 1 -12 2q-25 4 -33.5 6t-31.5 7.5t-33.5 11t-24.5 15t-20.5 22t-6.5 28.5q-1 45 42.5 68.5t106.5 22.5q95 0 154 -52zM407 696l-137 -127h-39l-136 127v7h51l105 -93
l105 93h51v-7z" />
    <glyph glyph-name="Ydieresis" unicode="&#x178;" horiz-adv-x="639" 
d="M277 280v-280h54v280l274 419v1h-63l-238 -368l-237 368h-63v-1zM157 806q0 18 12.5 28.5t27 10.5t27 -10.5t12.5 -28.5t-12.5 -28.5t-27 -10.5t-27 10.5t-12.5 28.5zM371 806q0 18 12.5 28.5t27 10.5t27 -10.5t12.5 -28.5t-12.5 -28.5t-27 -10.5t-27 10.5t-12.5 28.5z
" />
    <glyph glyph-name="Zcaron" unicode="&#x17d;" horiz-adv-x="578" 
d="M37 700v-50h421l-445 -627v-23h531v53h-451l451 628v19h-507zM461 907l-142 -132h-40l-142 132v7h53l109 -96l109 96h53v-7z" />
    <glyph glyph-name="zcaron" unicode="&#x17e;" horiz-adv-x="473" 
d="M40 494v-44h299l-315 -433v-17h388v46h-312l312 429v19h-372zM390 693l-134 -124h-37l-134 124v7h50l102 -91l103 91h50v-7z" />
    <glyph glyph-name="florin" unicode="&#x192;" horiz-adv-x="386" 
d="M122 -1v448h-101v43h101v44q0 169 148 169q53 0 98 -34l-24 -36q-42 25 -76 25q-98 0 -98 -124v-44h163v-43h-163v-448q0 -82 -29.5 -126t-105.5 -44q-47 0 -94 35l23 34q31 -25 73 -25q46 0 65.5 30t19.5 96z" />
    <glyph glyph-name="circumflex" unicode="&#x2c6;" horiz-adv-x="421" 
d="M36 569l142 132h40l142 -132v-7h-53l-109 96l-109 -96h-53v7z" />
    <glyph glyph-name="caron" unicode="&#x2c7;" horiz-adv-x="404" 
d="M360 694l-142 -132h-40l-142 132v7h53l109 -96l109 96h53v-7z" />
    <glyph glyph-name="breve" unicode="&#x2d8;" horiz-adv-x="333" 
d="M241 700h42q0 -58 -33.5 -90.5t-92.5 -32.5q-60 0 -93 32.5t-33 90.5h40q0 -83 86 -83q47 0 65.5 24.5t18.5 58.5z" />
    <glyph glyph-name="dotaccent" unicode="&#x2d9;" horiz-adv-x="206" 
d="M56 667q0 18 12.5 28.5t27 10.5t27 -10.5t12.5 -28.5t-12.5 -28.5t-27 -10.5t-27 10.5t-12.5 28.5z" />
    <glyph glyph-name="ring" unicode="&#x2da;" horiz-adv-x="397" 
d="M74 622q0 45 31 70.5t74 25.5t75 -25.5t32 -70.5q0 -46 -30.5 -72.5t-77.5 -26.5q-48 0 -76 26.5t-28 72.5zM178 680q-37 0 -52.5 -29t0 -58t52.5 -29q39 0 55 29t0 58t-55 29z" />
    <glyph glyph-name="ogonek" unicode="&#x2db;" horiz-adv-x="407" 
d="M220 -10l15 -31q-84 15 -113 -29q-20 -30 1 -60q20 -27 60 -25q24 1 48 14t38 36l32 -18q-15 -32 -47 -50t-68 -20q-75 -3 -103 50q-24 45 5 88q39 56 132 45z" />
    <glyph glyph-name="tilde" unicode="&#x2dc;" horiz-adv-x="325" 
d="M65 628l-34 11q5 44 40.5 60.5t71.5 -2.5l41 -22q18 -10 36.5 -4t24.5 30l34 -11q-4 -45 -40 -61.5t-72 3.5l-41 22q-18 10 -36.5 3.5t-24.5 -29.5z" />
    <glyph glyph-name="hungarumlaut" unicode="&#x2dd;" horiz-adv-x="352" 
d="M79 588h-48v4l72 109h65v-1zM211 588h-48v4l72 109h65v-1z" />
    <glyph glyph-name="endash" unicode="&#x2013;" horiz-adv-x="549" 
d="M32 280v51h446v-51h-446z" />
    <glyph glyph-name="emdash" unicode="&#x2014;" horiz-adv-x="654" 
d="M39 280v51h553v-51h-553z" />
    <glyph glyph-name="quoteleft" unicode="&#x2018;" horiz-adv-x="205" 
d="M107 703h44l-52 -188h-57z" />
    <glyph glyph-name="quoteright" unicode="&#x2019;" horiz-adv-x="200" 
d="M85 513h-44l52 188h57z" />
    <glyph glyph-name="quotesinglbase" unicode="&#x201a;" horiz-adv-x="198" 
d="M45 30q0 18 12.5 28.5t27 10.5t27 -10.5t12.5 -28.5q0 -8 -3 -17l-40 -102h-43l31 83q-24 9 -24 36z" />
    <glyph glyph-name="quotedblleft" unicode="&#x201c;" horiz-adv-x="344" 
d="M231 701h44l-52 -188h-57zM105 701h44l-52 -188h-57z" />
    <glyph glyph-name="quotedblright" unicode="&#x201d;" horiz-adv-x="335" 
d="M85 513h-44l52 188h57zM211 513h-44l52 188h57z" />
    <glyph glyph-name="quotedblbase" unicode="&#x201e;" horiz-adv-x="318" 
d="M45 30q0 18 12.5 28.5t27 10.5t27 -10.5t12.5 -28.5q0 -8 -3 -17l-40 -102h-43l31 83q-24 9 -24 36zM186 30q0 18 12.5 28.5t27 10.5t27 -10.5t12.5 -28.5q0 -8 -3 -17l-40 -102h-43l31 83q-24 9 -24 36z" />
    <glyph glyph-name="dagger" unicode="&#x2020;" horiz-adv-x="554" 
d="M503 503v-47h-216v-588h-49v588h-216v47h216v197h49v-197h216z" />
    <glyph glyph-name="daggerdbl" unicode="&#x2021;" horiz-adv-x="596" 
d="M525 503v-47h-216v-278h216v-47h-216v-263h-49v263h-216v47h216v278h-216v47h216v197h49v-197h216z" />
    <glyph glyph-name="bullet" unicode="&#x2022;" horiz-adv-x="330" 
d="M147 253q-43 0 -70.5 26.5t-27.5 69.5t27.5 69.5t70.5 26.5q41 0 68.5 -26.5t27.5 -69.5t-27.5 -69.5t-68.5 -26.5z" />
    <glyph glyph-name="ellipsis" unicode="&#x2026;" horiz-adv-x="530" 
d="M36 30q0 18 12.5 28.5t27 10.5t27 -10.5t12.5 -28.5t-12.5 -28.5t-27 -10.5t-27 10.5t-12.5 28.5zM209 30q0 18 12.5 28.5t27 10.5t27 -10.5t12.5 -28.5t-12.5 -28.5t-27 -10.5t-27 10.5t-12.5 28.5zM380 30q0 18 12.5 28.5t27 10.5t27 -10.5t12.5 -28.5t-12.5 -28.5
t-27 -10.5t-27 10.5t-12.5 28.5z" />
    <glyph glyph-name="perthousand" unicode="&#x2030;" horiz-adv-x="1090" 
d="M593 703l-55 -1l-446 -702h56zM173 705q49 0 84.5 -22t52 -54.5t16.5 -71t-16.5 -71t-52 -54.5t-84.5 -22q-42 0 -74.5 16.5t-49.5 42.5t-25 57t0 62.5t25 57.5t49.5 42.5t74.5 16.5zM514 289q42 0 75 -16.5t50 -42.5t25 -57t0 -62.5t-25 -57.5t-50 -42.5t-75 -16.5
q-48 0 -84 22t-52 54.5t-16 71t16 71t52 54.5t84 22zM514 248q-40 0 -68 -22t-34 -53t0.5 -62t34.5 -53t68 -22t68 22t34 53t-0.5 62t-34.5 53t-68 22zM173 662q-41 0 -68.5 -21.5t-34 -52t0 -61t34.5 -52t69 -21.5q40 0 67 21.5t33.5 52t0 61t-34 52t-67.5 21.5zM877 289
q42 0 75 -16.5t50 -42.5t25 -57t0 -62.5t-25 -57.5t-50 -42.5t-75 -16.5q-48 0 -84 22t-52 54.5t-16 71t16 71t52 54.5t84 22zM877 248q-40 0 -68 -22t-34 -53t0.5 -62t34.5 -53t68 -22t68 22t34 53t-0.5 62t-34.5 53t-68 22z" />
    <glyph glyph-name="guilsinglleft" unicode="&#x2039;" horiz-adv-x="297" 
d="M30 317l138 219h52v-5l-135 -214l135 -214v-6h-52z" />
    <glyph glyph-name="guilsinglright" unicode="&#x203a;" horiz-adv-x="297" 
d="M240 317l-138 -220h-52v6l135 214l-135 214v5h52z" />
    <glyph glyph-name="fraction" unicode="&#x2044;" horiz-adv-x="208" 
d="M242 735h48l-303 -789h-49z" />
    <glyph glyph-name="Euro" unicode="&#x20ac;" horiz-adv-x="586" 
d="M527 62l14 -48q-63 -22 -124 -22q-290 0 -341 280h-64v46h58q-1 7 -1 28t1 31h-58v46h64q17 127 105 206t236 79q46 0 99 -15l-11 -43q-44 12 -88 12q-248 0 -287 -239h273l-13 -46h-267q-1 -9 -1 -29q0 -23 1 -30h253l-10 -46h-236q17 -112 89 -171t198 -59q56 0 110 20
z" />
    <glyph glyph-name="trademark" unicode="&#x2122;" horiz-adv-x="758" 
d="M142 420v240h-112v40h273v-40h-114v-240h-47zM357 420v280h44l115 -147l116 147h42v-280h-47v202l-108 -132h-9l-106 136v-206h-47z" />
    <glyph glyph-name="minus" unicode="&#x2212;" horiz-adv-x="498" 
d="M41 313v51h375v-51h-375z" />
    <glyph glyph-name="fi" unicode="&#xfb01;" horiz-adv-x="480" 
d="M154 494h249v-494h-49v451h-200v-451h-48v451h-101v43h101v40q0 82 50 129.5t119.5 46.5t126.5 -47l-22 -37q-28 21 -66 30t-74 3t-61 -38t-25 -87v-40z" />
    <glyph glyph-name="fl" unicode="&#xfb02;" horiz-adv-x="465" 
d="M375 656v-656h-49v637q-28 21 -74 21q-49 0 -73.5 -28t-24.5 -96v-44h127v-42h-127v-448h-48v448h-101v42h101v44q0 84 34.5 126.5t113.5 42.5q72 0 121 -47z" />
    <glyph glyph-name="CR" horiz-adv-x="322" 
 />
    <glyph glyph-name="_0004" horiz-adv-x="0" 
 />
    </font>
</defs>
</svg>
